Dragon player no reproduce mp4

Hola

Tengo Kubuntu 12.04 arquitectura de 32 bits recien instalado. El problema es presisamente ese que Dragon player no reproduce mp4 mientras que en kubuntu 11.10 si lo hacia, ya intale kubuntu-restricted-extras

agradezco de antemano sus comentarios y ayuda.

Agrego que ya instale non-free-codecs siguiendo las instrucciones de esta pagina

http://www.ubuntizando.com/2012/04/26/cosas-que-hacer-tras-instalar-ubun...

pero la cosa sigue igual.

Por cierto, en el HOW TO: ¿Qué hacer despues de instalar ubuntu Kubuntu? de la wiki creo que hace falta hacer unos cambios para los repositorios mediubuntu: decir que pora Kubuntu 12.04 o cambiar

$ sudo wget http://www.medibuntu.org/sources.list.d/intrepid.list --output-document=/etc/apt/sources.list.d/medibuntu.list

por

$ sudo wget http://www.medibuntu.org/sources.list.d/$(lsb_release -cs).list --output-document=/etc/apt/sources.list.d/medibuntu.list

porque el primero no me funcionó y el segundo si, pero dado que no soy experto en Kubuntu pues mejor hago la observación y si alguien con mayor conocimiento me dice que lo haga o lo hace él mismo pues que mejor.

Hay que actualizar ese How To, y eliminar al diablo de una buena vez esa información sobre el repositorio Medibuntu que actualmente no sirve para nada en el 99% de los casos. Voy a ver si este fin de semana lo hago.

Mp4 es solo un formato contenedor. Dentro puedes tener contenido de video/audio codificados con los más variados encoders y configuraciones. Por lo que decir "no reproduce mp4" es muy genérico. Puedes ver los codecs utilizados dentro del mp4 con programas como mediainfo.

Dragon Player decodifica por medio de los codecs de la biblioteca ffmpeg, haciendo uso de un plugin GStreamer.

sudo apt-get install gstreamer0.10-ffmpeg

Supuestamente al abrir el video con Dragon Player, te debería informar que necesita los codecs y luego descargar el anterior paquete. Fijate si instalando ese paquete ya puedes abrir tus videos.

Saludos.

Hola YAFU

gstreamer0.10-ffmpeg esta instalado y en su ultima version cheesygrin y aun asi no se abren los videos mp4

Saludos y gracias

Entonces prueba con al menos cuatro videos mp4 o mkv para saber si solo ocurre con algunos, e investiga como he dicho, con que encoders fueron codificados, con programas como mediainfo.
Por las dudas comprueba que tengas instalados paquetes como "gstreamer0.10-plugins-base", "gstreamer0.10-plugins-good" "gstreamer0.10-pulseaudio". Pero lo más seguro es que los tengas instalados.
Saludos.

y si no va entonces prueba con vlc, que al menos te dice cual es el problema o bien desde mplayer.

He instalado vlc, y con vlc, el video si se ve. VLC incrementa el volumen en 200%,

Tambien dejo la informacion que arroja mediainfo porque no se cuales son los codecs con los que fue encriptado el video.

General
Complete name                            : ubuntu_compiz.mp4
Format                                   : MPEG-4
Format profile                           : Base Media / Version 2
Codec ID                                 : mp42
File size                                : 24.1 MiB
Duration                                 : 6mn 50s
Overall bit rate mode                    : Variable
Overall bit rate                         : 492 Kbps
Encoded date                             : UTC 2010-04-30 16:48:59
Tagged date                              : UTC 2010-04-30 16:48:59
gsst                                     : 0
gstd                                     : 410876
gssd                                     : B4A7DD607HH1335224128418415
gshh                                     : o-o.preferred.iad23t01.v7.cache1.c.youtube.com

Video
ID                                       : 2
Format                                   : AVC
Format/Info                              : Advanced Video Codec
Format profile                           : Baseline@L2.1
Format settings, CABAC                   : No
Format settings, ReFrames                : 1 frame
Format settings, GOP                     : M=1, N=30
Codec ID                                 : avc1
Codec ID/Info                            : Advanced Video Coding
Duration                                 : 6mn 50s
Bit rate                                 : 378 Kbps
Maximum bit rate                         : 1 348 Kbps
Width                                    : 480 pixels
Height                                   : 270 pixels
Display aspect ratio                     : 16:9
Frame rate mode                          : Constant
Frame rate                               : 25.000 fps
Color space                              : YUV
Chroma subsampling                       : 4:2:0
Bit depth                                : 8 bits
Scan type                                : Progressive
Bits/(Pixel*Frame)                       : 0.117
Stream size                              : 18.5 MiB (77%)
Title                                    : (C) 2007 Google Inc. v08.13.2007.
Encoded date                             : UTC 2010-04-30 16:48:59
Tagged date                              : UTC 2010-04-30 16:48:59

Audio
ID                                       : 1
Format                                   : AAC
Format/Info                              : Advanced Audio Codec
Format profile                           : LC
Codec ID                                 : 40
Duration                                 : 6mn 50s
Bit rate mode                            : Variable
Bit rate                                 : 112 Kbps
Maximum bit rate                         : 138 Kbps
Channel(s)                               : 2 channels
Channel positions                        : Front: L R
Sampling rate                            : 44.1 KHz
Compression mode                         : Lossy
Stream size                              : 5.49 MiB (23%)
Title                                    : (C) 2007 Google Inc. v08.13.2007.
Encoded date                             : UTC 2010-04-30 16:48:59
Tagged date                              : UTC 2010-04-30 16:48:59

Como te decía anteriormente, en estos casos importa más ver el encoder utilizado, que el formato contenedor. A ti te informa que el video ha sido codificado en AVC1 (creo que es MPEG2 - estandar h262) utilizando el perfil "Baseline@L2.1". Y es ese perfil de codificación el que por lo visto GStreamer está teniendo problemas. Ocurre en todo reproductor que utilice GStreamer como motor. Es decir, mp4 "si" reproduce mientras el video no esté codificado en los formatos problemáticos.
Puedes sumarte al siguiente reporte si lo deseas, sumándote como afectado arriba del reporte y/o comentando tu experiencia en Kubuntu con Dragon Player:
https://bugs.launchpad.net/ubuntu/+source/gstreamer0.10/+bug/973014

Indican que hay un parche y el estatus es "Fix Released". Así que ya veremos...
Saludos.

Muchas gracias, Pues entonces por el momento me quedaré con VLC porque necesito reproducir dicho video, se me hace raro que en Kubuntu 11.10 Dragon Player si reproduciera dicho video y ahora en 12.04 la misma version de Dragon Player no lo haga.